• 0 voto(s) - 0 Media
  • 1
  • 2
  • 3
  • 4
  • 5
Dorohedoro Soundtrack Op + End Completos MP3 320Kbps & FLAC Audio
#1
Bueno se da la casualidad que salio todo el soundtrack bueno no todo no las canciones extras pero si las del opening y ending asique aqui les hice la conversion a mp3 porque todo estaba en FLAC

[Imagen: Cover-dorohedoro.jpg]
Actualizacion: Se añadio la Cancion "Strange Meat Pie" esta ultima salio en el capitulo 08 de Dorohedoro.

Lista de Canciones:

Código:
01) Welcome to Chaos
02) Welcome to Chaos (Instrumental)
03) Who am I _
04) Night SURFING
05) D.D.D.D
06) Strange Meat Pie
06) So HUNGRY
07) So HUNGRY (Instrumental)

la ultima cancion fue una extra que venia con Welcome to chaos y la deje viene con 2 covers 

La version FLAC solo estara disponible por descarga directa esto se debe a su gran tamaño.

Mediainfo MP3 (Primer cancion)

Código:
Format                      : MPEG Audio
Format version              : Version 1
Format profile              : Layer 3
Duration                    : 3 min 38 s
Bit rate mode              : Constant
Bit rate                    : 320 kb/s
Channel(s)                  : 2 channels
Sampling rate              : 48.0 kHz
Compression mode            : Lossy
Stream size                : 8.32 MiB (90%)

MediaInfo FLAC [b](Primer cancion)[/b]

Código:
Format                      : FLAC
Format/Info                : Free Lossless Audio Codec
Duration                    : 3 min 38 s
Bit rate mode              : Variable
Bit rate                    : 3 033 kb/s
Channel(s)                  : 2 channels
Channel layout              : L R
Sampling rate              : 96.0 kHz
Bit depth                  : 24 bits
Compression mode            : Lossless
Stream size                : 78.8 MiB (99%)
Writing library            : Lavf58.30.100

Version MP3 320Kkbps
Version Flac
  Responder


Posibles temas similares…
Tema Autor Respuestas Vistas Último mensaje
Music Cop Craft SoundTrack Con Opening y Ending Completos Kosmito 0 105 01-18-2020, 12:44 AM
Último mensaje: Kosmito
  Beastars SoundTrack OP & END Completos Kosmito 0 143 01-17-2020, 07:35 PM
Último mensaje: Kosmito

Salto de foro:


Usuarios navegando en este tema: 2 invitado(s)